#TITLE:Bubble Dance;
#SUBTITLE:;
#ARTIST:.....;
#TITLETRANSLIT:Bubble Dance;
#SUBTITLETRANSLIT:;
#ARTISTTRANSLIT:.....;
#CREDIT:Thu Sau , 1-5-2009;
#BANNER:Bubble Dance-bn.png;
#BACKGROUND:Bubble Dance-bg.png;
#LYRICSPATH:;
#CDTITLE:pm4cd.png;
#MUSIC:Bubble Dance.mp3;
#OFFSET:-1.580;
#SAMPLESTART:36.860;
#SAMPLELENGTH:20.000;
#SELECTABLE:YES;
#BPMS:0.000=64.510,2.000=129.010,138.000=64.510,146.000=129.010;
#STOPS:;
#BGCHANGES:;
// cache tags:
#FIRSTBEAT:0.000;
#LASTBEAT:232.000;
#SONGFILENAME:Songs/Lon`/Bubble Dance/Bubble Dance.sm;
#HASMUSIC:1;
#HASBANNER:0;
#MUSICLENGTH:115.128;
// end cache tags

//---------------dance-single - ----------------
#NOTES:
     dance-single:
     :
     Hard:
     27:
     1.000,1.000,1.000,0.625,1.000,662.000,219.000,72.000,0.000,140.000:
1000
0000
0000
0100
0100
0000
0010
0000
0001
0000
0100
0000
1020
0000
0000
0000
1031
0000
0000
0000
0000
0000
0100
0000
0001
0000
0000
0000
0010
0000
0000
0000
,
1000
0000
0000
0001
0100
0000
0010
0000
0001
0000
0000
0100
1000
0000
0001
0000
,
0010
0000
0000
0100
0010
0000
1001
1000
0110
0010
0000
1010
0100
0000
1010
0000
,
0101
0001
0001
1000
0110
0000
1010
0010
1001
0001
0000
1001
0100
0000
1001
0000
,
1010
0010
0010
1000
0110
0000
1001
0001
1010
0010
0000
1010
0100
0000
1010
0000
,
1001
0001
0001
1000
0110
0010
1001
0000
0110
0010
0010
0110
0100
0001
1001
0001
,
0110
0010
0010
0110
0101
0000
1001
0001
1010
0010
0100
1010
0100
0000
1010
0000
,
1001
0001
0110
1000
0110
0000
1002
0000
1013
0010
0100
1010
0100
0000
1010
0000
,
1001
0001
0101
1000
1001
0000
0120
1000
0131
0001
1000
0101
1000
0000
0101
0000
,
0101
0001
1010
0100
1010
0010
0101
0000
0110
0010
1010
0110
1000
0001
0101
0001
,
0101
0001
1001
0101
0110
0010
0100
0010
2100
0000
0101
0001
0010
0100
3012
0110
,
0100
0000
0110
0010
1000
0000
0110
0010
1000
0000
0110
0010
1203
0010
0001
1001
,
1320
0000
0101
0001
2130
0000
0011
0100
3112
0000
0100
0000
1103
0010
0200
0010
,
1001
0000
0010
0000
1010
0000
0001
0000
1001
0000
0010
0000
2311
0001
0000
0100
,
3112
0000
0100
0000
1123
0000
0100
0100
1132
0000
0010
0000
1100
0010
2003
0010
,
0101
0000
0001
0000
0110
0000
0100
0000
0011
0000
0001
0000
3211
0001
0000
0010
,
1312
0000
0010
0000
1123
0000
1000
0000
1032
0000
0110
0010
1000
0100
0010
0110
,
1000
0000
0110
0010
1000
0000
0110
0010
1000
0010
0100
0010
1000
0100
1000
0010
,
0100
0010
0010
0100
1000
0000
0010
0010
1103
0100
0000
0010
0000
0000
0001
0000
,
1000
1000
0010
0000
0100
0000
0001
0001
0100
0100
0000
1000
0000
0000
1000
0000
,
0001
0001
0010
0000
0100
0000
0010
0010
0100
0100
0000
1000
0000
0000
1000
0000
,
0001
0001
0010
0000
0100
0100
0001
0000
1000
1000
1000
1000
0000
1000
1000
1000
,
1000
1000
1000
1000
1000
0000
0001
0001
0100
0100
0000
1000
0000
0000
1000
0000
,
0001
0001
0100
0000
0010
0000
2000
0000
3010
0010
0000
0001
0000
0000
0001
0000
,
1000
1000
0100
0000
0010
0000
0002
0000
0013
0010
0000
0001
0000
0000
0001
0000
,
1000
1000
0100
0000
0010
0010
0100
0000
0001
0001
0001
0001
0000
0001
0001
0001
,
1000
1000
1000
1000
1001
0100
0010
0100
2011
0000
0100
0000
0011
0100
3002
0010
,
1100
0000
0010
0000
1010
0000
0010
0000
0110
0000
0010
0000
2113
0010
0000
0001
,
3121
0000
1000
0000
1231
0000
1000
0000
1320
0000
0101
0001
1000
1000
0132
1100
,
0100
0000
1010
0010
0100
0000
1010
0010
1000
0000
0110
0010
2103
0010
0001
0101
,
3120
0000
1001
0001
1230
0000
0011
1000
1312
0000
1000
0000
1100
0010
2003
0100
,
0011
0000
0100
0000
0101
0000
0010
0000
0101
0000
0100
0000
3121
0100
0000
1000
,
1231
0000
0010
0000
1312
0000
0010
0100
1023
0000
0101
0001
1000
0100
0001
0101
,
1000
0000
0101
0001
1000
0000
0101
0001
1000
0100
0001
1000
0100
0001
0100
1000
,
0001
0000
0100
0000
0100
0000
1000
0000
0100
0000
0000
0000
0001
0000
0001
0000
1031
1000
0000
1000
0000
0000
0100
0000
1000
1000
0100
0000
0010
0000
0001
0001
,
0100
0100
0000
1000
0000
0000
0010
0000
0010
0010
0001
0000
0100
0000
1000
1000
0010
0010
0000
0001
0000
0000
0001
0000
0100
0100
1000
0000
0010
0010
0001
0000
,
1000
1000
1000
1000
0000
0001
0011
0011
0010
0010
0010
0010
0200
0000
0000
0000
1310
0000
0000
0000
1000
0000
1010
0000
1001
0000
0000
0000
1100
0000
1000
0000
,
1010
0000
1000
1010
1001
0000
1100
1000
1001
0000
1000
1001
1100
0000
1010
1000
,
1001
0000
1000
1001
1100
0000
1010
1000
0100
0000
0000
0100
1001
0000
0010
0000
,
0001
0000
0000
0001
1100
0000
0010
0000
0010
0000
0000
0010
1001
0000
0100
0000
,
0110
0000
0000
0010
1001
0000
0110
0000
1012
0000
0010
0000
0110
0010
2003
0100
,
0101
0000
0010
0000
0101
0000
0010
0000
0101
0000
0100
0000
3112
0010
0000
0010
,
1213
0000
0001
0000
1321
0000
0100
1000
1231
0000
1000
0000
1001
0010
0302
0010
,
1100
0000
0010
0000
0110
0000
1000
0000
0110
0000
0100
0000
2113
0100
0000
0100
,
3121
0000
0100
0000
1231
0000
0010
0001
1302
0000
0110
0010
0100
0010
2103
0101
,
0010
0000
0101
0100
0010
0000
0101
0100
0010
0000
0101
0100
3210
0001
1000
1001
,
0312
0000
1010
0010
0123
0000
1001
0001
1032
0000
0110
0010
1000
0100
0010
0110
,
1000
0000
0110
0010
1000
0000
0110
0010
0100
0000
1010
0010
0100
1000
0010
1010
,
0100
0000
0000
0000
0000
0000
1010
0000
0000
0010
0000
0000
0100
0000
0100
0000
0100
0000
0010
0000
0010
0000
0010
0000
2113
0000
0000
0000
0000
0000
0010
0000
0000
0000
0000
0000
0110
0000
0000
0001
0000
0000
3020
0000
0000
0001
0000
0000
,
0101
0000
1000
0000
0101
0000
0001
0000
1100
0000
0001
0000
1231
0010
0000
0010
,
1312
0000
0010
0000
1123
0000
1000
0001
1132
0000
0010
0000
0110
0000
2013
0001
,
0101
0000
0010
0000
0101
0000
0100
0000
0011
0000
0100
0000
3112
0100
0000
1000
,
1213
0000
0001
0000
1321
0000
0100
1000
1132
0000
0010
0000
1010
0100
2003
0100
,
0011
0000
0100
0000
0101
0000
0010
0000
0101
0000
0010
0000
3211
1000
0000
1000
,
1312
0000
0100
0000
1123
0000
0001
1000
1132
0000
0010
0000
1100
0010
0000
0010
,
1100
0000
0010
0000
1010
0000
0100
0000
0010
0000
1000
1000
0010
0100
1000
1000
,
0010
0100
1000
0100
0010
0000
0010
0010
1223
0000
0000
0000
0000
0000
0000
0000
,
0000
0000
0300
0000
,
0030
0000
0000
0000
;
